Превосходство torrent

Превосходство (2014)

Оригинальное название: Transcendence

Премьера в мире: 10 апреля 2014

Премьера (РФ): 10 июля 2014, «West»

Продолжительность: 119 мин. / 01:59

Слоган: «What if a new intelligence was born?»

Технологический прорыв, который так стремительно развивается в современном обществе, не всех радует. Большинство живущих видит в этом угрозу для собственной жизни. Радикальная организация, члены которой борются против распространения опаснейших технологий, видят опасность и выбирают мишенью известных ученых. Один из избранных ученых — доктор Уилл Кастер является лучшим среди специалистов по созданию искусственного интеллекта. Мечтой ученого является разработка сверхкомпьютера, где будет происходить объединение разумов людей, даже покинувших мир живых, а также их чувства и эмоции. Разработка была практически завершена, но на очередной научной конференции Кастера смертельно ранит человек, входящий в группу анти-технологических организаций.

Жена Уилла, хочет попытаться спасти хотя бы личность ученого, предпринимает попытки уговорить его коллегу, Макса, работающего над совместным проектом, оказать помощь в завершении создания машины. Эвелина и Макс не уверены в успехе собственных шагов, но хотят попытаться сохранить личность ученого.

Чувство опасности не напрасно. Их опасный эксперимент с успехом удается и Кастер может переместиться в абсолютно любой компьютер на нашей планете. Став сверхчеловеком, в нем начинает нарастать неуемное желание власти над всем миром. Как справиться человечеству с таким опасным врагом, еще никто не знает.

Превосходство (2014) скачать торрент

Для перехода к полной версии сайта нажмите сюда

Видео: AVC / 23,976 fps / 1920х1080p /

Аудио#1 — Русский / AC3 / 48 KHz / 2 ch / 384 Kbps (Официальный дубляж — ‘чистый звук’) [реально стерео]

Аудио#2 — Русский / AC3 / 48 KHz / 5.1 ch / 384 Kbps (Неофициальный дубляж — Студия Пиратского Дубляжа)

Аудио#3 — Английский / AC3 / 48 KHz / 5.1 ch / 640 Kbps (Original — BD 3D Fre)

Размер файла: 6.6 ГБ

Перевод: Проф. (полное дублирование)

Сюжет Превосходство: В центре сюжета картины пара гениальных ученых, которые ведут работы по созданию суперкомпьютера, которые мог бы мыслить самостоятельно. Между тем одна радикальная антитехнологическая группировка старается любой ценой предотвратить это. Они считают, что мир, в котором мыслительные возможности компьютеров превосходят человеческие, приведут к исчезновению людей. Кто же победит в этом противостоянии, и какой будет судьба человечества? Станут ли «умные» компьютеры спасение для людей или же приведут к его гибели?

Оригинальное название: Transcendence

Год выхода в прокат: 2014

Жанр: фантастика, драма, триллер

Режиссер: Уолли Пфистер

Актёры: Джонни Депп, Ребекка Холл, Пол Беттани, Киллиан Мёрфи, Кейт Мара, Коул Хаузер, Морган Фриман, Клифтон Коллинз мл., Кори Хардрикт, Фальк Хеншел

IMDB рейтинг: 6.3/10 (158 047 голосов)

Превосходство torrent

Оригинальное название: Transcendence

Продолжительность: 119 мин. / 01:59

Скачать фильм «Превосходство» через торрент бесплатно

Перевод: Дублированный|НТВ+| + Оригинал (Английский)

Субтитры: Русские, Английские (полные, SDH, SDH цветные).

Качество: BDRip (источник: HDCLUB /BD-Remux / 1080p)

Кодек: XviD, build 67 codec

Видео: 720 x 304; 23.976 fps; 1707 kbps; 0.325 bit/pixel

Аудио: AC3 Dolby Digital; 448 Kbps; 6 channels; 48 KHz|все дорожки|

Перевод: Профессиональный (полное дублирование)[НТВ+]

Качество: BDRip| исх. Transcendence 2014 1080p Blu-ray AVC DTS-HD MA 5 1-HDW |

Видео: 720×304 (2.37:1), 23.976 fps, XviD build 73

1296 kbps avg, 0.25 bit/pixel

Аудио: 48 kHz, AC3 Dolby Digital, 3/2 (L,C,R,l,r) + LFE ch,

Перевод#1: Дубляж [НТВ+]

Перевод#2: Авторский (одноголосый закадровый) [Ю.Немахов, Д.Есарев]

Субтитры: Русские, английские (Full + SDH + SDH-Colored)

Качество: BDRip 720p

Видео: х.264, 1280×534 (2,40:1), 23.976 fps, 3965 Кbps, 0.242 bit/pixel

Аудио#1: 48 kHz, AC3 Dolby Digital, 3/2 (L,C,R,l,r) + LFE ch, 448.00 kbps |DUB

Аудио#2: 48 kHz, AC3 Dolby Digital, 3/2 (L,C,R,l,r) + LFE ch, 640.00 kbps |Ю.Немахов

Аудио#3: 48 kHz, AC3 Dolby Digital, 3/2 (L,C,R,l,r) + LFE ch, 640.00 kbps |Д.Есарев

Аудио#4: 48 kHz, AC3 Dolby Digital, 3/2 (L,C,R,l,r) + LFE ch, 640.00 kbps |ENG

Перевод: Дубляж [НТВ+]

Субтитры: русские, английские (Full + SDH + SDH-Colored)

Видео: AVC, 1032×430 (2,40:1), 23.976 fps, 1720 Кbps, 0.162 bit/pixel

Аудио#1: AC3 / 5.1 / 48 kHz / 448 kbps / 16 bit |RUS

Аудио#2: AC3 / 5.1 / 48 kHz / 448 kbps / 16 bit |ENG

Перевод: Дубляж [НТВ+]

Видео: AVC, 960×400 (2.40:1), 1305 kbps, 23,976 fps, 0,142 bpp

Аудио: AC3 / 5.1 / 48 kHz / 448 kbps / 16 bit

Перевод: Профессиональный дублированный (официальный) -IP TV

Качество: BDRip (byAsh61) с BD 3D Fre

Видео: AVC / 23,976 fps /1920х1080p /

Аудио: #1 — Русский / AC3 / 48 KHz / 5.1 ch / 448 Kbps (Официальный дубляж — IP TV)

Субтитры: (внешние SRT UTF-8)

Перевод: Дублированный, авторский одноголосый

Видео: 1775 Кбит/с, 1024×424

Звук: Русский (AC3, 6 ch, 448 Кбит/с), украинский (AC3, 2 ch, 192 Кбит/с), английский (AC3, 6 ch, 448 Кбит/с)

Аудио #1: Идентификатор : 2 Формат : AC-3 Формат/Информация : Audio Coding 3 Расширение режима : CM (complete main) Параметр Endianness формата : Big Идентификатор кодека : A_AC3 Продолжительность : 1 ч. 53 м. Вид битрейта : Постоянный Битрейт : 448 Кбит/сек Каналы : 6 каналов Расположение каналов : Front: L C R, Side: L R, LFE Частота : 48,0 КГц Метод сжатия : С потерями Размер потока : 364 Мбайт (12%) Заголовок : Дублированный (IPTV) Язык : Russian Default : Да Forced : Нет

Аудио #2: Идентификатор : 3 Формат : AC-3 Формат/Информация : Audio Coding 3 Расширение режима : CM (complete main) Параметр Endianness формата : Big Идентификатор кодека : A_AC3 Продолжительность : 1 ч. 53 м. Вид битрейта : Постоянный Битрейт : 448 Кбит/сек Каналы : 6 каналов Расположение каналов : Front: L C R, Side: L R, LFE Частота : 48,0 КГц Метод сжатия : С потерями Размер потока : 364 Мбайт (12%) Заголовок : Авторский одноголосый (Ю.Немахов) Язык : Russian Default : Нет Forced : Нет

Аудио #3: Идентификатор : 4 Формат : AC-3 Формат/Информация : Audio Coding 3 Расширение режима : CM (complete main) Параметр Endianness формата : Big Идентификатор кодека : A_AC3 Продолжительность : 1 ч. 53 м. Вид битрейта : Постоянный Битрейт : 448 Кбит/сек Каналы : 6 каналов Расположение каналов : Front: L C R, Side: L R, LFE Частота : 48,0 КГц Метод сжатия : С потерями Размер потока : 364 Мбайт (12%) Заголовок : Авторский одноголосый (Д.Есарев) Язык : Russian Default : Нет Forced : Нет

Аудио #4: Идентификатор : 5 Формат : AC-3 Формат/Информация : Audio Coding 3 Профиль формата : Dolby Digital Расширение режима : CM (complete main) Параметр Endianness формата : Big Идентификатор кодека : A_AC3 Продолжительность : 1 ч. 53 м. Вид битрейта : Постоянный Битрейт : 192 Кбит/сек Каналы : 2 канала Расположение каналов : Front: L R Частота : 48,0 КГц Метод сжатия : С потерями Размер потока : 156 Мбайт (5%) Заголовок : Дублированный (IPTV) Язык : Ukrainian Default : Нет Forced : Нет

Аудио #5: Идентификатор : 6 Формат : AC-3 Формат/Информация : Audio Coding 3 Расширение режима : CM (complete main) Параметр Endianness формата : Big Идентификатор кодека : A_AC3 Продолжительность : 1 ч. 53 м. Вид битрейта : Постоянный Битрейт : 448 Кбит/сек Каналы : 6 каналов Расположение каналов : Front: L C R, Side: L R, LFE Частота : 48,0 КГц Метод сжатия : С потерями Размер потока : 364 Мбайт (12%) Язык : English Default : Нет Forced : Нет

Качество: BDRip 720p

Перевод: Профессиональный (полное дублирование) [СПД]

Субтитры: Русские, английские (Full + SDH + SDH-Colored)

Видео: х.264, 1032×430 (2,40:1), 23.976 fps, 1720 Кbps, 0.162 bit/pixel

Аудио#1: 48 kHz, AC3 Dolby Digital, 3/2 (L,C,R,l,r) + LFE ch, 384.00 kbps |RUS

Аудио#2: 48 kHz, AC3 Dolby Digital, 3/2 (L,C,R,l,r) + LFE ch, 448.00 kbps |ENG

Перевод: Дубляж — кинотеатральный + Некинотеатральный

Видео: 720×304 (2.37:1), 23.976 fps, XviD build 73

1344 kbps avg, 0.26 bit/pixel

Аудио: 48 kHz, AC3 Dolby Digital, 2/0 (L,R) ch,

192.00 kbps avg — кинотеатральный дубляж

Аудио: 48 kHz, AC3 Dolby Digital, 2/0 (L,R) ch,

192.00 kbps avg — некинотеатральный дубляж

Перевод: Дубляж — кинотеатральный

Видео: 688×288 (2.39:1), 23.976 fps, XviD build 73

737 kbps avg, 0.16 bit/pixel

Аудио: 48 kHz, MPEG Layer 3, 2 ch,

Качество: HDRip | КПК

формат: mp4,размер кадра: 480х208, битрейт: 350 кб/с

перевод: Дублированный (не кинотеатральный),

Перевод: Дублированный (кинотеатральный)[чистый звук]

Видео: 720×304 (2.37:1), 23.976 fps, XviD build 73

1359 kbps avg, 0.26 bit/pixel

Звук: 48 kHz, AC3 Dolby Digital, 2/0 (L,R) ch,

Перевод: Дублированный (Чистый звук, официальный) +(не кинотеатральный) [Студия Пиратского дубляжа], авторский одноголосый

Видео: 1984 Кбит/с, 1024×424

Звук: Русский (AC3, 6 ch, 384 Кбит/с), (AC3, 6 ch, 448 Кбит/с), английский (AC3, 6 ch, 448 Кбит/с)

Субтитры: Русские, английские

Аудио #1: Идентификатор : 2 Формат : AC-3 Формат/Информация : Audio Coding 3 Расширение режима : CM (complete main) Параметр Endianness формата : Big Идентификатор кодека : A_AC3 Продолжительность : 1 ч. 59 м. Вид битрейта : Постоянный Битрейт : 384 Кбит/сек Каналы : 2 канала Расположение каналов : Front: L R Частота : 48,0 КГц Битовая глубина : 16 бит Метод сжатия : С потерями Размер потока : 328 Мбайт (9%) Заголовок : Дублированный (Чистый звук, официальный) Язык : Russian Default : Да Forced : Нет

Аудио #2: Идентификатор : 3 Формат : AC-3 Формат/Информация : Audio Coding 3 Расширение режима : CM (complete main) Параметр Endianness формата : Big Идентификатор кодека : A_AC3 Продолжительность : 1 ч. 59 м. Вид битрейта : Постоянный Битрейт : 384 Кбит/сек Каналы : 6 каналов Расположение каналов : Front: L C R, Side: L R, LFE Частота : 48,0 КГц Битовая глубина : 16 бит Метод сжатия : С потерями Размер потока : 328 Мбайт (9%) Заголовок : Дублированный (Пиратская студия) Язык : Russian Default : Нет Forced : Нет

Аудио #3: Идентификатор : 4 Формат : AC-3 Формат/Информация : Audio Coding 3 Расширение режима : CM (complete main) Параметр Endianness формата : Big Идентификатор кодека : A_AC3 Продолжительность : 1 ч. 59 м. Вид битрейта : Постоянный Битрейт : 448 Кбит/сек Каналы : 6 каналов Расположение каналов : Front: L C R, Side: L R, LFE Частота : 48,0 КГц Битовая глубина : 16 бит Метод сжатия : С потерями Размер потока : 382 Мбайт (11%) Заголовок : Авторский одноголосый (Д. Есарев) Язык : Russian Default : Нет Forced : Нет

Аудио #4: Идентификатор : 5 Формат : AC-3 Формат/Информация : Audio Coding 3 Расширение режима : CM (complete main) Параметр Endianness формата : Big Идентификатор кодека : A_AC3 Продолжительность : 1 ч. 59 м. Вид битрейта : Постоянный Битрейт : 448 Кбит/сек Каналы : 6 каналов Расположение каналов : Front: L C R, Side: L R, LFE Частота : 48,0 КГц Битовая глубина : 16 бит Метод сжатия : С потерями Размер потока : 382 Мбайт (11%) Заголовок : Авторский одноголосый (Ю.Немахов) Язык : Russian Default : Нет Forced : Нет

Аудио #5: Идентификатор : 6 Формат : AC-3 Формат/Информация : Audio Coding 3 Расширение режима : CM (complete main) Параметр Endianness формата : Big Идентификатор кодека : A_AC3 Продолжительность : 1 ч. 59 м. Вид битрейта : Постоянный Битрейт : 448 Кбит/сек Каналы : 6 каналов Расположение каналов : Front: L C R, Side: L R, LFE Частота : 48,0 КГц Битовая глубина : 16 бит Метод сжатия : С потерями Размер потока : 382 Мбайт (11%) Заголовок : Оригинал Язык : English Default : Нет Forced : Нет

Превосходство torrent

Превосходство / Transcendence (2014) BDRip от Twi7ter | НТВ+

Страна: Великобритания, Китай, США

Жанр: фантастика, драма, триллер

Перевод: Профессиональный (полное дублирование) [НТВ+]

Режиссер: Уолли Пфистер / Wally Pfister

Выдающийся исследователь в области изучения искусственного интеллекта доктор Уилл Кастер работает над созданием компьютера, который сможет собрать в себе все знания и опыт, накопленные человечеством. Достаточно спорные эксперименты, проводимые Уиллом, прославили его и в то же время сделали основной целью радикальной анти-технологической группировки. Экстремисты делают всё возможное, чтобы остановить учёного.

Однако в своих попытках уничтожить Уилла они добиваются обратного и становятся невольными участниками становления его абсолютного превосходства. Для его жены Эвелин и лучшего друга Макса Вотерса, тоже учёных-исследователей, встаёт вопрос, должны ли они продолжать этот эксперимент. Их худшие опасения претворяются в жизнь, когда жажда знаний Уилла переходит в неконтролируемую жажду власти.

Качество: BDRip | исх. Transcendence 2014 1080p Blu-ray AVC DTS-HD MA 5 1-HDW |

Видео кодек: XviD

Аудио кодек: AC3

Видео: 720×304 (2.37:1), 23.976 fps, XviD build 73

1296 kbps avg, 0.25 bit/pixel

Аудио: 48 kHz, AC3 Dolby Digital, 3/2 (L,C,R,l,r) + LFE ch,

Источники:
Превосходство (2014)
Немного о фильме Превосходство: Технологический прорыв, который так стремительно развивается в современном обществе, не всех радует.
http://torrentfilmi.org/487-prevoshodstvo-2014.html
Превосходство (2014) скачать торрент
Превосходство (2014) скачать торрент фильма без регистрации и рейтинга. Превосходство (2014). смотреть онлайн, бесплатно, HD 720, сюжет
http://www.citysmile.org/101842-prevoshodstvo.html
Превосходство torrent
Выдающийся исследователь в области изучения искусственного интеллекта доктор Уилл Кастер работает над созданием компьютера, который сможет собрать в себе все знания и опыт, накопленные человечеством.
http://gig-torrent.net/films/5096-prevoshodstvo-2014.html
Превосходство torrent
Скачать через торрент Превосходство / Transcendence (2014) BDRip от Twi7ter | НТВ+ без регистрации | 1.46 GB
http://megapeer.org/torrent/69818

COMMENTS